Sign in to follow this  
Followers 0
drakodtas

AE DIL HAI MUSHKIL (2016) DVDRiP x264 ShAaNiG | ENΣΩΜΑΤΩΜΕΝΟΙ ΥΠΟΤΙΤΛΟΙ

AE DIL HAI MUSHKIL (2016) DVDRiP x264 ShAaNiG | ENΣΩΜΑΤΩΜΕΝΟΙ ΥΠΟΤΙΤΛΟΙ
 
2E8PaMI.jpg
GK28RAt.png
ΣΚΗΝΟΘΕΣΙΑ : Karan Johar
ΣΕΝΑΡΙΟ : Karan Johar, Niranjan Iyengar
ΗΘΟΠΟΙΟΙ : Aishwarya Rai Bachchan (as Saba), Ranbir Kapoor (as Ayan Sangar), Anushka Sharma (as Alizeh), Fawad Khan (as Ali), Lisa Haydon (as Lisa D'Souza)
ΕΙΔΟΣ : Drama | Musical
ΠΡΕΜΙΕΡΑ :  28/10/16 (USA) 
 
ΜΕΤΑΦΡΑΣΗ : *Anarkali*
Cc3XMqu.png
Ο Ayan Senger (Ranbir Kapoor) συναντά τυχαία την Alizeh Khan (Anushka Sharma) και ενώ στην αρχή γίνονται φίλοι, εκείνος καταλήγει να την ερωτευτεί. Εκείνη όμως, τον βλέπει φιλικά. Μία μέρα η Alizeh σκοντάφτει επάνω στον DJ Ali (Fawad Khan), τον πρώην φίλο της, ο οποίος θέλει να συμφιλιωθεί μαζί της. Η Alizeh σταματά την παρέα της με τον Ayan και λίγο αργότερα του τηλεφωνεί και τον προσκαλεί στο γάμο της με τον Ali στο Lucknow. Ο Ayan μένει έκπληκτος, αλλά συμφωνεί με την πρόσκληση. Στο γάμο, αποκαλύπτει στην Alizeh τα συναισθήματά του, αλλά εκείνη τον απορρίπτει, κάνοντάς τον να εγκαταλείψει την τελετή πληγωμένος.
WrcUfFn.png
Please login or register to see this code.

 

 
Τεχνικά Χαρακτηριστικά
 
 
Spoiler

 

General
Format                         : AVI
Format/Info                    : Audio Video Interleave
Format profile                 : OpenDML
File size                      : 1.41 GiB
Duration                       : 2h 36mn
Overall bit rate               : 1 290 Kbps
Writing application            : MEncoder sherpya-r37853+g6d7f566-5.3.1
Writing library                : MPlayer
 
Video
ID                             : 0
Format                         : AVC
Format/Info                    : Advanced Video Codec
Format profile                 : High@L3
Format settings, CABAC         : No
Format settings, ReFrames      : 1 frame
Codec ID                       : avc1
Duration                       : 2h 36mn
Bit rate                       : 1 147 Kbps
Width                          : 1 280 pixels
Height                         : 536 pixels
Display aspect ratio           : 2.40:1
Frame rate                     : 29.970 fps
Color space                    : YUV
Chroma subsampling             : 4:2:0
Bit depth                      : 8 bits
Scan type                      : Progressive
Bits/(Pixel*Frame)             : 0.056
Stream size                    : 1.26 GiB (89%)
Writing library                : x264 core 148 r2665 a01e339
Encoding settings              : cabac=0 / ref=1 / deblock=1:0:0 / analyse=0x3:0x113 / me=hex / subme=7 / psy=1 / psy_rd=1.00:0.00 / mixed_ref=0 / me_range=16 / chroma_me=1 / trellis=1 / 8x8dct=1 / cqm=0 / deadzone=21,11 / fast_pskip=1 / chroma_qp_offset=-2 / threads=12 / lookahead_threads=2 / sliced_threads=0 / nr=0 / decimate=1 / interlaced=0 / bluray_compat=0 / constrained_intra=0 / bframes=0 / weightp=2 / keyint=250 / keyint_min=25 / scenecut=40 / intra_refresh=0 / rc_lookahead=40 / rc=abr / mbtree=1 / bitrate=1147 / ratetol=1.0 / qcomp=0.60 / qpmin=0 / qpmax=69 / qpstep=4 / ip_ratio=1.40 / aq=1:1.00
 
Audio
ID                             : 1
Format                         : MPEG Audio
Format version                 : Version 1
Format profile                 : Layer 3
Mode                           : Joint stereo
Mode extension                 : MS Stereo
Codec ID                       : 55
Codec ID/Hint                  : MP3
Duration                       : 2h 36mn
Bit rate mode                  : Constant
Bit rate                       : 128 Kbps
Channel(s)                     : 2 channels
Sampling rate                  : 44.1 KHz
Compression mode               : Lossy
Stream size                    : 144 MiB (10%)
Alignment                      : Aligned on interleaves
Interleave, duration           : 26 ms (0.78 video frame)
Interleave, preload duration   : 2246 ms

 

 

 
4w30dJE.png
zo7gxev.jpg
WD3AcDo.png
fIpNQ4o.png
Οι free user για να μην έχετε αναμονή ανάμεσα στα parts,
μπορείτε να κατεβάζετε ένα link από κάθε hoster
και στο τέλος αποσυμπιέζετε την ταινία κανονικά.
BPiJv3o.png
 
[hide] Please login or register to see this code. [/hide]
 
TNdxksSh.png
 
[hide] Please login or register to see this code. [/hide]
 
premium user
 
BPiJv3o.png
 
[hide] Please login or register to see this code. [/hide]
 
 
TNdxksSh.png
 
[hide] Please login or register to see this code. [/hide]
 
MnSLPW2.png
 
[hide] Please login or register to see this code. [/hide]
 
 
 
 
Αν Σας Αρέσει Η Δουλειά Μου Υποστήριξτε με δημιουργώντας premium account  Στους  Παρακάτω Hoster
0

Share this post


Link to post
Share on other sites

Create an account or sign in to comment

You need to be a member in order to leave a comment

Create an account

Sign up for a new account in our community. It's easy!


Register a new account

Είσοδος

Already have an account? Sign in here.


Είσοδος
Sign in to follow this  
Followers 0