Sign in to follow this  
Followers 0
drakodtas

Worlds Apart Ένας Άλλος Κόσμος (2015) HDTV XviD

Worlds Apart  Ένας Άλλος Κόσμος (2015) HDTV XviD
 
Jf48VlR.jpg
GK28RAt.png
ΣΚΗΝΟΘΕΣΙΑ : Χριστόφορος Παπακαλιάτης
ΣΕΝΑΡΙΟ : Χριστόφορος Παπακαλιάτης
ΗΘΟΠΟΙΟΙ : Χριστόφορος Παπακαλίατης, Τζέι Κέι Σίμονς, Μαρία Καβογιάννη, Μηνάς Χατζησάββας
ΕΙΔΟΣ : δραματική-αισθηματική
ΠΡΕΜΙΕΡΑ : 17 Δεκεμβρίου 2015 (GR) 
Cc3XMqu.png
Ο Φάρις είναι ένας Σύριος μετανάστης που σώζει τη φοιτήτρια Δανάη από μια ληστεία. Ο 40άρης Γιώργος, στέλεχος μεγάλης εταιρείας, βρίσκεται εγκλωβισμένος σε έναν προβληματικό γάμο, γνωρίζεται με τη Σουηδέζα Ελίζ. Η νοικοκυρά Μαρία γνωρίζει έξω από το σούπερ μάρκετ τον Σεμπάστιαν, έναν Γερμανό που εργάζεται στην Εθνική Βιβλιοθήκη. Την ίδια στιγμή, ο χρεοκοπημένος Αντώνης έχει παραδοθεί στο τυφλό ρατσιστικό μίσος.
WrcUfFn.png
Please login or register to see this code.

 

Τεχνικά Χαρακτηριστικά
 
 
Spoiler

 

General
Format                         : AVI
Format/Info                    : Audio Video Interleave
Format profile                 : OpenDML
File size                      : 1.03 GiB
Duration                       : 1h 49mn
Overall bit rate               : 1 344 Kbps
Writing application            : Lavf55.37.101
 
Video
ID                             : 0
Format                         : xvid
Codec ID                       : xvid
Duration                       : 1h 49mn
Bit rate                       : 1 200 Kbps
Width                          : 1 280 pixels
Height                         : 578 pixels
Display aspect ratio           : 2.2:1
Frame rate                     : 25.000 fps
Bits/(Pixel*Frame)             : 0.065
Stream size                    : 941 MiB (89%)
 
Audio
ID                             : 1
Format                         : MPEG Audio
Format version                 : Version 1
Format profile                 : Layer 3
Mode                           : Joint stereo
Mode extension                 : MS Stereo
Codec ID                       : 55
Codec ID/Hint                  : MP3
Duration                       : 1h 49mn
Bit rate mode                  : Constant
Bit rate                       : 128 Kbps
Channel(s)                     : 2 channels
Sampling rate                  : 44.1 KHz
Compression mode               : Lossy
Stream size                    : 100 MiB (10%)
Alignment                      : Aligned on interleaves
Interleave, duration           : 26 ms (0.65 video frame)
Interleave, preload duration   : 26 ms


 

 

4w30dJE.png
W0sdvLp.jpg
WD3AcDo.png
fIpNQ4o.png
Οι free user για να μην έχετε αναμονή ανάμεσα στα parts,
μπορείτε να κατεβάζετε ένα link από κάθε hoster
και στο τέλος αποσυμπιέζετε την ταινία κανονικά.
BPiJv3o.png
 
[hide] Please login or register to see this code. [/hide]
 
TNdxksSh.png
 
[hide] Please login or register to see this code. [/hide]
 
premium user

 

BPiJv3o.png
[hide] Please login or register to see this code. [/hide]
 
 
TNdxksSh.png
 
[hide] Please login or register to see this code. [/hide]
 
MnSLPW2.png
 
[hide] Please login or register to see this code. [/hide]
 
 
 
 
 
Αν Σας Αρέσει Η Δουλειά Μου Υποστήριξτε με δημιουργώντας premium account  Στους  Παρακάτω Hoster
 
0

Share this post


Link to post
Share on other sites

Create an account or sign in to comment

You need to be a member in order to leave a comment

Create an account

Sign up for a new account in our community. It's easy!


Register a new account

Είσοδος

Already have an account? Sign in here.


Είσοδος
Sign in to follow this  
Followers 0