Sign in to follow this  
Followers 0
drakodtas

I OLGA HEPNAROVA (2016) DVDRip x264-HANDJoB | ENΣΩΜΑΤΩΜΕΝΟΙ ΥΠΟΤΙΤΛΟΙ

I OLGA HEPNAROVA (2016) DVDRip x264-HANDJoB | ENΣΩΜΑΤΩΜΕΝΟΙ ΥΠΟΤΙΤΛΟΙ
 
MTBbgg3.jpg
GK28RAt.png
ΣΚΗΝΟΘΕΣΙΑ : Petr Kazda, Tomas Weinreb
ΣΕΝΑΡΙΟ : Roman Cilek, Tomas Weinreb
ΗΘΟΠΟΙΟΙ : Michalina Olszanska (as Olga Hepnarova), Martin Pechlat (as Miroslav), Klara Meliskova (as Mother), Marika Soposka (as Jitka), Juraj Nvota (as Advocate)
ΕΙΔΟΣ : Biography | Crime
ΠΡΕΜΙΕΡΑ :  24/03/16 (USA) 
 
ΜΕΤΑΦΡΑΣΗ : pierre•beauman
Cc3XMqu.png
Μεγαλωμένη στην Πράγα, η Όλγα Χεπναρόβα είναι ανήσυχη και προβληματική από παιδί και από φύσης της, χωρίς φίλους, ενώ συχνά την κακοποιούν οι συμμαθητές της. Ζώντας σε αυστηρό οικογενειακό περιβάλλον, αισθανόμενη μοναξιά κι ανικανότητα να ανταπεξέλθει στα ζητήματα της ζωής, ολοένα και αποξενώνεται από όλους. Σιγά-σιγά, το μίσος μέσα της ολοένα και χτίζεται, ως μια μοναδικότητα που αφέθηκε να καταστραφεί από τον κόσμο. Ως απόκληρος, σχολαστικά συνωμοτεί κατά της κοινωνίας, αποζητώντας εκδίκηση επί της οικογένειας και επί των πάντων. 
WrcUfFn.png
Please login or register to see this code.

 

Τεχνικά Χαρακτηριστικά
 
 
Spoiler

 

General
General
Format                         : AVI
Format/Info                    : Audio Video Interleave
File size                      : 732 MiB
Duration                       : 1h 40mn
Overall bit rate               : 1 023 Kbps
Writing application            : MEncoder sherpya-r37853+g6d7f566-5.3.1
Writing library                : MPlayer
 
Video
ID                             : 0
Format                         : AVC
Format/Info                    : Advanced Video Codec
Format profile                 : High@L2.1
Format settings, CABAC         : No
Format settings, ReFrames      : 1 frame
Codec ID                       : avc1
Duration                       : 1h 40mn
Bit rate                       : 886 Kbps
Width                          : 1 016 pixels
Height                         : 568 pixels
Display aspect ratio           : 16:9
Original display aspect ratio  : 16:9
Frame rate                     : 25.000 fps
Color space                    : YUV
Chroma subsampling             : 4:2:0
Bit depth                      : 8 bits
Scan type                      : Progressive
Bits/(Pixel*Frame)             : 0.061
Stream size                    : 632 MiB (86%)
Writing library                : x264 core 148 r2665 a01e339
Encoding settings              : cabac=0 / ref=1 / deblock=1:0:0 / analyse=0x3:0x113 / me=hex / subme=7 / psy=1 / psy_rd=1.00:0.00 / mixed_ref=0 / me_range=16 / chroma_me=1 / trellis=1 / 8x8dct=1 / cqm=0 / deadzone=21,11 / fast_pskip=1 / chroma_qp_offset=-2 / threads=12 / lookahead_threads=2 / sliced_threads=0 / nr=0 / decimate=1 / interlaced=0 / bluray_compat=0 / constrained_intra=0 / bframes=0 / weightp=2 / keyint=250 / keyint_min=25 / scenecut=40 / intra_refresh=0 / rc_lookahead=40 / rc=abr / mbtree=1 / bitrate=886 / ratetol=1.0 / qcomp=0.60 / qpmin=0 / qpmax=69 / qpstep=4 / ip_ratio=1.40 / aq=1:1.00
 
Audio
ID                             : 1
Format                         : MPEG Audio
Format version                 : Version 1
Format profile                 : Layer 3
Mode                           : Joint stereo
Mode extension                 : MS Stereo
Codec ID                       : 55
Codec ID/Hint                  : MP3
Duration                       : 1h 40mn
Bit rate mode                  : Constant
Bit rate                       : 128 Kbps
Channel(s)                     : 2 channels
Sampling rate                  : 44.1 KHz
Compression mode               : Lossy
Stream size                    : 91.6 MiB (13%)
Alignment                      : Aligned on interleaves
Interleave, duration           : 26 ms (0.65 video frame)
Interleave, preload duration   : 2586 ms

 

 

 
4w30dJE.png
4hrFAnO.jpg
WD3AcDo.png
fIpNQ4o.png
Οι free user για να μην έχετε αναμονή ανάμεσα στα parts,
μπορείτε να κατεβάζετε ένα link από κάθε hoster
και στο τέλος αποσυμπιέζετε την ταινία κανονικά.
BPiJv3o.png
 
[hide] Please login or register to see this code. [/hide]
 
TNdxksSh.png
 
[hide] Please login or register to see this code. [/hide]
 
premium user
 
 
BPiJv3o.png
 
[hide] Please login or register to see this code. [/hide]
 
 
TNdxksSh.png
 
[hide] Please login or register to see this code. [/hide]
 
 
Αν Σας Αρέσει Η Δουλειά Μου Υποστήριξτε με δημιουργώντας premium account  Στους  Παρακάτω Hoster
0

Share this post


Link to post
Share on other sites

Create an account or sign in to comment

You need to be a member in order to leave a comment

Create an account

Sign up for a new account in our community. It's easy!


Register a new account

Είσοδος

Already have an account? Sign in here.


Είσοδος
Sign in to follow this  
Followers 0