Sign in to follow this  
Followers 0
drakodtas

STORKS (2016) BRRip XviD AC3-EVO | ENΣΩΜΑΤΩΜΕΝΟΙ ΥΠΟΤΙΤΛΟΙ

STORKS (2016) BRRip XviD AC3-EVO | ENΣΩΜΑΤΩΜΕΝΟΙ ΥΠΟΤΙΤΛΟΙ
 
0He4UVL.jpg
GK28RAt.png
ΣΚΗΝΟΘΕΣΙΑ : Nicholas Stoller, Doug Sweetland
ΣΕΝΑΡΙΟ : Nicholas Stoller
ΗΘΟΠΟΙΟΙ : Andy Samberg (as Junior), Katie Crown (as Tulip), Kelsey Grammer (as Hunter), Jennifer Aniston (as Sarah Gardner), Ty Burrell (as Henry Gardner)
ΕΙΔΟΣ : Animation | Adventure
ΠΡΕΜΙΕΡΑ : 06/10/16 (USA) 
 
ΜΕΤΑΦΡΑΣΗ : tabjeep
Cc3XMqu.png
Οι πελαργοί κάποτε παραδίδανε τα μωρά. Τώρα, δουλειά τους είναι η παράδοση πακέτων για το γιγάντιο παγκόσμιο δίκτυο Cornerstore.com. Ο Τζούνιορ, ο κορυφαίος πελαργός της εταιρίας, πρόκειται να πάρει προαγωγή, όταν από λάθος ενεργοποιεί τη μηχανή κατασκευής μωρών, βγάζοντας ένα αξιαγάπητο, όσο και παράνομο μωρό κοριτσάκι. Απεγνωσμένος να παραδώσει τον μπελά πριν το μάθει το αφεντικό, ο Τζούνιορ και ο φίλος του, Τούλιπ, ο μοναδικός άνθρωπος στην περιοχή, ξεκινούν μια κούρσα για να κάνουν την πρώτη τους ποτέ παράδοση μωρού.
WrcUfFn.png
Please login or register to see this code.

 

 
Τεχνικά Χαρακτηριστικά
 
 
Spoiler

 

General
Format                         : AVI
Format/Info                    : Audio Video Interleave
File size                      : 1.49 GiB
Duration                       : 1h 26mn
Overall bit rate               : 2 460 Kbps
Writing application            : VirtualDubMod 1.5.10.2 (build 2542/release)
Writing library                : VirtualDubMod build 2542/release
 
Video
ID                             : 0
Format                         : MPEG-4 Visual
Format profile                 : Advanced Simple@L5
Format settings, BVOP          : 1
Format settings, QPel          : No
Format settings, GMC           : No warppoints
Format settings, Matrix        : Default (H.263)
Muxing mode                    : Packed bitstream
Codec ID                       : XVID
Codec ID/Hint                  : XviD
Duration                       : 1h 26mn
Bit rate                       : 2 004 Kbps
Width                          : 720 pixels
Height                         : 304 pixels
Display aspect ratio           : 2.35:1
Frame rate                     : 23.976 fps
Color space                    : YUV
Chroma subsampling             : 4:2:0
Bit depth                      : 8 bits
Scan type                      : Progressive
Compression mode               : Lossy
Bits/(Pixel*Frame)             : 0.382
Stream size                    : 1.22 GiB (81%)
Writing library                : XviD 64
 
Audio
ID                             : 1
Format                         : AC-3
Format/Info                    : Audio Coding 3
Mode extension                 : CM (complete main)
Format settings, Endianness    : Big
Codec ID                       : 2000
Duration                       : 1h 26mn
Bit rate mode                  : Constant
Bit rate                       : 448 Kbps
Channel(s)                     : 6 channels
Channel positions              : Front: L C R, Side: L R, LFE
Sampling rate                  : 48.0 KHz
Compression mode               : Lossy
Stream size                    : 279 MiB (18%)
Alignment                      : Split accross interleaves
Interleave, duration           : 64 ms (1.53 video frames)
Interleave, preload duration   : 500 ms

 

 

 
 
4w30dJE.png
ihVdNE2.jpg
WD3AcDo.png
fIpNQ4o.png
Οι free user για να μην έχετε αναμονή ανάμεσα στα parts,
μπορείτε να κατεβάζετε ένα link από κάθε hoster
και στο τέλος αποσυμπιέζετε την ταινία κανονικά.
BPiJv3o.png
 
[hide] Please login or register to see this code. [/hide]
 
TNdxksSh.png
 
[hide] Please login or register to see this code. [/hide]
 
 
premium user
 
BPiJv3o.png
 
[hide] Please login or register to see this code. [/hide]
 
 
TNdxksSh.png
 
[hide] Please login or register to see this code. [/hide]

 

 

 

Αν Σας Αρέσει Η Δουλειά Μου Υποστήριξτε με δημιουργώντας premium account  Στους  Παρακάτω Hoster
0

Share this post


Link to post
Share on other sites

Create an account or sign in to comment

You need to be a member in order to leave a comment

Create an account

Sign up for a new account in our community. It's easy!


Register a new account

Είσοδος

Already have an account? Sign in here.


Είσοδος
Sign in to follow this  
Followers 0