Sign in to follow this  
Followers 0
drakodtas

THE MATCHBREAKER (2016) HDRIP XVID AC3-EVO | ENΣΩΜΑΤΩΜΕΝΟΙ ΥΠΟΤΙΤΛΟΙ

THE MATCHBREAKER (2016) HDRIP XVID AC3-EVO | ENΣΩΜΑΤΩΜΕΝΟΙ ΥΠΟΤΙΤΛΟΙ
 
zuapMtE.jpg
GK28RAt.png
ΣΚΗΝΟΘΕΣΙΑ : Caleb Vetter
ΣΕΝΑΡΙΟ : Caleb Vetter, Wesley Elder
ΗΘΟΠΟΙΟΙ : Wesley Elder (as Ethan Cooper), Christina Grimmie (as Emily Atkins), Osric Chau (as Sam), Olan Rogers (as Mitchell), Shawna Howson (as Lexy Cooper)
ΕΙΔΟΣ :  Comedy | Romance
ΠΡΕΜΙΕΡΑ : 06/12/16 (USA) 
 
ΜΕΤΑΦΡΑΣΗ : 4go10™
Cc3XMqu.png
Όταν μια ιδεαλιστική ρομαντική απολύεται από την εργασία ημέρας του, προσφέρεται ένα one-time συναυλία για να σπάσει μια σχέση κορίτσια για αποδοκιμάζοντας τους γονείς της. Αυτό το one-time συναυλία εξαπλώνεται μέσω ...
WrcUfFn.png
Please login or register to see this code.

 

Τεχνικά Χαρακτηριστικά
 
Spoiler


General
Format                         : AVI
Format/Info                    : Audio Video Interleave
File size                      : 1.62 GiB
Duration                       : 1h 34mn
Overall bit rate               : 2 457 Kbps
Writing application            : VirtualDubMod 1.5.10.2 (build 2542/release)
Writing library                : VirtualDubMod build 2542/release
 
Video
ID                             : 0
Format                         : MPEG-4 Visual
Format profile                 : Advanced Simple@L5
Format settings, BVOP          : 1
Format settings, QPel          : No
Format settings, GMC           : No warppoints
Format settings, Matrix        : Default (H.263)
Muxing mode                    : Packed bitstream
Codec ID                       : XVID
Codec ID/Hint                  : XviD
Duration                       : 1h 34mn
Bit rate                       : 2 257 Kbps
Width                          : 720 pixels
Height                         : 304 pixels
Display aspect ratio           : 2.35:1
Frame rate                     : 23.976 fps
Color space                    : YUV
Chroma subsampling             : 4:2:0
Bit depth                      : 8 bits
Scan type                      : Progressive
Compression mode               : Lossy
Bits/(Pixel*Frame)             : 0.430
Stream size                    : 1.49 GiB (92%)
Writing library                : XviD 64
 
Audio
ID                             : 1
Format                         : AC-3
Format/Info                    : Audio Coding 3
Mode extension                 : CM (complete main)
Format settings, Endianness    : Big
Codec ID                       : 2000
Duration                       : 1h 34mn
Bit rate mode                  : Constant
Bit rate                       : 192 Kbps
Channel(s)                     : 2 channels
Channel positions              : Front: L R
Sampling rate                  : 48.0 KHz
Compression mode               : Lossy
Stream size                    : 129 MiB (8%)
Alignment                      : Split accross interleaves
Interleave, duration           : 64 ms (1.53 video frames)
Interleave, preload duration   : 500 ms

 

 

 
4w30dJE.png
 
jfG3tpj.jpg
WD3AcDo.png
fIpNQ4o.png
Οι free user για να μην έχετε αναμονή ανάμεσα στα parts,
μπορείτε να κατεβάζετε ένα link από κάθε hoster
και στο τέλος αποσυμπιέζετε την ταινία κανονικά.
BPiJv3o.png
 
[hide] Please login or register to see this code. [/hide]
 
TNdxksSh.png
 
[hide] Please login or register to see this code. [/hide]
 
premium user
 
BPiJv3o.png
 
[hide] Please login or register to see this code. [/hide]
 
TNdxksSh.png
 
[hide] Please login or register to see this code. [/hide]
 
 
 
Αν Σας Αρέσει Η Δουλειά Μου Υποστήριξτε με δημιουργώντας premium account  Στους  Παρακάτω Hoster
 
0

Share this post


Link to post
Share on other sites

Create an account or sign in to comment

You need to be a member in order to leave a comment

Create an account

Sign up for a new account in our community. It's easy!


Register a new account

Είσοδος

Already have an account? Sign in here.


Είσοδος
Sign in to follow this  
Followers 0