Sign in to follow this  
Followers 0
drakodtas

THINGS TO COME (2016) LIMITED subbed BDRip x264-BiPOLaR | ENΣΩΜΑΤΩΜΕΝΟΙ ΥΠΟΤΙΤΛΟΙ

THINGS TO COME  (2016)  LIMITED subbed BDRip x264-BiPOLaR | ENΣΩΜΑΤΩΜΕΝΟΙ ΥΠΟΤΙΤΛΟΙ
 
IfCh1q3.jpg
GK28RAt.png
ΣΚΗΝΟΘΕΣΙΑ : Mia Hansen-L?ve
ΣΕΝΑΡΙΟ : Mia Hansen-L?ve
ΗΘΟΠΟΙΟΙ :Isabelle Huppert (as Nathalie Chazeaux), Andre Marcon (as Heinz), Roman Kolinka (as Fabien), Edith Scob (as Yvette Lavastre), Sarah Lepicard (as Chloe)
ΕΙΔΟΣ :Drama
ΠΡΕΜΙΕΡΑ : 02/12/16 (USA) 
 
ΜΕΤΑΦΡΑΣΗ : Calamity Jane
Cc3XMqu.png
Η Ναταλί διδάσκει φιλοσοφία σε γυμνάσιο του Παρισιού. Είναι παθιασμένη με τη δουλειά της και απολαμβάνει ιδιαίτερα την απόλαυση της σκέψης. Παντρεμένη με δύο παιδιά, μοιράζει τον χρόνο της ανάμεσα στην οικογένεια της, τους μαθητές της και της κτητική της μητέρα. Μια μέρα, ο σύζυγος της της ανακοινώνει πως της αφήνει για κάποια άλλη. Με την ελευθερία τώρα να της επιβάλλεται, η Ναταλί πρέπει να ξαναρχίσει τη ζωή της από την αρχή. 
WrcUfFn.png
Please login or register to see this code.

 

Τεχνικά Χαρακτηριστικά
 
 
Spoiler

 

General
Format                         : AVI
Format/Info                    : Audio Video Interleave
File size                      : 613 MiB
Duration                       : 1h 41mn
Overall bit rate               : 841 Kbps
Writing application            : MEncoder sherpya-r37853+g6d7f566-5.3.1
Writing library                : MPlayer
 
Video
ID                             : 0
Format                         : AVC
Format/Info                    : Advanced Video Codec
Format profile                 : High@L2.1
Format settings, CABAC         : No
Format settings, ReFrames      : 1 frame
Codec ID                       : avc1
Duration                       : 1h 41mn
Bit rate                       : 732 Kbps
Width                          : 696 pixels
Height                         : 392 pixels
Display aspect ratio           : 16:9
Frame rate                     : 24.000 fps
Color space                    : YUV
Chroma subsampling             : 4:2:0
Bit depth                      : 8 bits
Scan type                      : Progressive
Bits/(Pixel*Frame)             : 0.112
Stream size                    : 511 MiB (83%)
Writing library                : x264 core 148 r2665 a01e339
Encoding settings              : cabac=0 / ref=1 / deblock=1:0:0 / analyse=0x3:0x113 / me=hex / subme=7 / psy=1 / psy_rd=1.00:0.00 / mixed_ref=0 / me_range=16 / chroma_me=1 / trellis=1 / 8x8dct=1 / cqm=0 / deadzone=21,11 / fast_pskip=1 / chroma_qp_offset=-2 / threads=12 / lookahead_threads=2 / sliced_threads=0 / nr=0 / decimate=1 / interlaced=0 / bluray_compat=0 / constrained_intra=0 / bframes=0 / weightp=2 / keyint=250 / keyint_min=24 / scenecut=40 / intra_refresh=0 / rc_lookahead=40 / rc=abr / mbtree=1 / bitrate=732 / ratetol=1.0 / qcomp=0.60 / qpmin=0 / qpmax=69 / qpstep=4 / ip_ratio=1.40 / aq=1:1.00
 
Audio
ID                             : 1
Format                         : MPEG Audio
Format version                 : Version 1
Format profile                 : Layer 3
Mode                           : Joint stereo
Mode extension                 : MS Stereo
Codec ID                       : 55
Codec ID/Hint                  : MP3
Duration                       : 1h 41mn
Bit rate mode                  : Constant
Bit rate                       : 128 Kbps
Channel(s)                     : 2 channels
Sampling rate                  : 44.1 KHz
Compression mode               : Lossy
Stream size                    : 93.3 MiB (15%)
Alignment                      : Aligned on interleaves
Interleave, duration           : 26 ms (0.63 video frame)
Interleave, preload duration   : 522 ms

 

 

 
4w30dJE.png
E0a8BLr.jpg
WD3AcDo.png
fIpNQ4o.png
BPiJv3o.png
 
[hide] Please login or register to see this code. [/hide]
 
TNdxksSh.png
 
[hide] Please login or register to see this code. [/hide]
 
 
premium user
 
BPiJv3o.png
 
[hide] Please login or register to see this code. [/hide]
 
TNdxksSh.png
 
[hide] Please login or register to see this code. [/hide]
 
 
 
Αν Σας Αρέσει Η Δουλειά Μου Υποστήριξτε με δημιουργώντας premium account  Στους  Παρακάτω Hoster
0

Share this post


Link to post
Share on other sites

Create an account or sign in to comment

You need to be a member in order to leave a comment

Create an account

Sign up for a new account in our community. It's easy!


Register a new account

Είσοδος

Already have an account? Sign in here.


Είσοδος
Sign in to follow this  
Followers 0